An American Terror 2014 720p 1080p & 3D BluRay x264 HD Download



An American Terror 2014 720p 1080p & 3D BluRay x264 HD Download

 

sssssdsd (Small)

A group of friends hatch a plan to get revenge on the bullies who have been tormenting them. In doing so, they stumble upon an underground torture chamber filled with unspeakable horrors. Trapped by a madman, they are used to fulfill his demented, bloody fantasies one at a time. Their only hope for survival is to fight back and find a way to escape the killer’s bloody grip.

Video
ID : 0
Format : MPEG-4 Visual
Format profile : [email protected]
Format settings, BVOP : No
Format settings, QPel : No
Format settings, GMC : No warppoints
Format settings, Matrix : Default (H.263)
Codec ID : XVID
Codec ID/Hint : XviD
Duration : 1h 22mn
Bit rate : 1 306 Kbps
Width : 720 pixels
Height : 306 pixels
Display aspect ratio : 2.35:1
Frame rate : 23.976 fps
Color space : YUV
Chroma subsampling : 4:2:0
Bit depth : 8 bits
Scan type : Progressive
Compression mode : Lossy
Bits/(Pixel*Frame) : 0.247
Stream size : 775 MiB (86%)
Title : RARBG.COM – An.American.Terror.2014.BRRip.XviD.MP3-RARBG
Writing library : Lavc56.60.100

Audio
ID : 1
Format : MPEG Audio
Format version : Version 1
Format profile : Layer 3
Mode : Joint stereo
Mode extension : MS Stereo
Codec ID : 55
Codec ID/Hint : MP3
Duration : 1h 22mn
Bit rate mode : Constant
Bit rate : 192 Kbps
Channel(s) : 2 channels
Sampling rate : 48.0 KHz
Compression mode : Lossy
Stream size : 114 MiB (13%)
Alignment : Aligned on interleaves
Interleave, duration : 24 ms (0.58 video frame)
Interleave, preload duration : 24 ms
Title : RARBG.COM – An.American.Terror.2014.BRRip.XviD.MP3-RARBG
Writing library : LAME3.99.5

2d

image

2d (Small)

3D

3d (Small)

Download links

DOWNLOAD TORRENT

Links: Screenshot | IMDB

An American Terror 2014 1080p BluRay x264-UNVEiL
6.56 GB
Published on: May 30, 2016 @ 19:05

UPLOADED | RapidGaToR | Nitroflare

Links: Screenshot | IMDB 3D

An American Terror 3D 2014 1080p BluRay x264-UNVEiL
6.7 GB
Published on: May 30, 2016 @ 18:58

UPLOADED | RapidGaToR | Nitroflare