Justice League 2017 720p Esub HD Dual Audio English Hindi GOPISAHI



NOTE HINDI AUDIO CAM SAMPLE chek
Format                         : Matroska
Format version                 : Version 4 / Version 2
File size                      : 939 MiB
Duration                       : 1 h 56 min
Overall bit rate               : 1 122 kb/s
Movie name                     : Justice League 2017Video
Format                         : AVC
Codec ID                       : V_MPEG4/ISO/AVC
Duration                       : 1 h 56 min
Bit rate                       : 951 kb/s
Width                          : 1 280 pixels
Height                         : 720 pixels
Display aspect ratio           : 16:9
Frame rate mode                : Constant
Frame rate                     : 29.970 (29970/1000) FPS
Original frame rate            : 29.970 (30000/1001) FPS
Stream size                    : 795 MiB (85%)
Writing library                : x264Audio #1
Format                         : AAC
Duration                       : 1 h 56 min
Bit rate                       : 85.2 kb/s
Channel(s)                     : 6 channels
Channel positions              : Front: L C R, Side: L R, LFE
Sampling rate                  : 44.1 kHz
Frame rate                     : 43.066 FPS (1024 SPF)
Stream size                    : 71.3 MiB (8%)
Language                       : EnglishAudio #2
Format                         : AAC
Duration                       : 1 h 56 min
Bit rate                       : 83.3 kb/s
Channel(s)                     : 6 channels
Channel positions              : Front: L C R, Side: L R, LFE
Sampling rate                  : 44.1 kHz
Frame rate                     : 43.066 FPS (1024 SPF)
Compression mode               : Lossy
Stream size                    : 69.7 MiB (7%)
Language                       : Hindi

Text
Language                       : English

http://4.bp.blogspot.com/-w-Cwxj2wRgw/WkuqlHe3MgI/AAAAAAAAQvg/VguS0FKgr-QVrF8_-OURZUIhgcCYoSsRgCLcBGAs/s1600/Justice%2BLeague%2B2017%2BGOPISAHI.mkv_thumbs.jpg
http://1.bp.blogspot.com/-lvUcmFbwHe4/WkuqihSs9LI/AAAAAAAAQvY/8ME3eg_Y5KIf88R0gQsVwsw1fFkNOOuSQCLcBGAs/s1600/Justice%2BLeague%2B2017%2BGOPISAHI.mkv_snapshot_01.25.36.jpg

Recent search terms:

  • what is this .this links sucks

    please add atomic blonde full hd direct links

  • Om Prakash

    Admin please upload Thor ragnarok dual audio @this print…

  • Jani man

    Young and hungry all season with eng subtitle