Resident Evil The Final Chapter 2017 Dual Audio Hindi-Cam 720p WEB-DL 1.12 GB Download Watch ONLINE



Resident Evil The Final Chapter 2017 Dual Audio Hindi-Cam 720p WEB-DL 1.12 GB Download

Resident Evil The Final Chapter 2017 Dual Audio Hindi-Cam 720p WEB-DL 1.12 GB Download

Resident Evil: The Final Chapter
2016 ‧ Fantasy/Science fiction film ‧ 1h 47m
5.7/10IMDb33%Rotten Tomatoes49%Metacritic
The T-virus unleashed by the evil Umbrella Corp. has spread to every corner of the globe, infesting the planet with zombies, demons and monsters. Alice (Milla Jovovich), a former Umbrella employee turned rogue warrior, joins her friends on a last-chance mission to storm the company’s headquarters located deep underneath what used to be Raccoon City. But the Red Queen (Ever Anderson) knows that Alice is coming, and the final battle will determine if the rest of mankind lives or dies.
Initial release: 13 December 2016 (Seoul)
Director: Paul W. S. Anderson
Box office: 312.2 million USD
Budget: 40 million USD
Music director: Paul Haslinger
Critic reviews

In addition to repurposing situations, character types, and fight choreography from previous episodes, Anderson borrows freely from a host of other post-apocalyptic action-adventures. Full review

Joe Leydon
Variety
Reasonably entertaining but hectic (supposed) finale for the up-and-down series. Full review

General
Format                                   : Matroska
Format version                           : Version 4 / Version 2
File size                                : 1.12 GiB
Duration                                 : 1 h 47 min
Overall bit rate                         : 1 496 kb/s
Encoded date                             : UTC 2017-03-16 13:35:55
Writing application                      : mkvmerge v9.7.1 (‘Pandemonium’) 64bit
Writing library                          : libebml v1.3.4 + libmatroska v1.4.5

Video
ID                                       : 1
Format                                   : AVC
Format/Info                              : Advanced Video Codec
Format profile                           : [email protected]
Format settings, CABAC                   : Yes
Format settings, ReFrames                : 5 frames
Codec ID                                 : V_MPEG4/ISO/AVC
Duration                                 : 1 h 47 min
Bit rate                                 : 1 239 kb/s
Width                                    : 1 280 pixels
Height                                   : 528 pixels
Display aspect ratio                     : 2.40:1
Frame rate mode                          : Constant
Frame rate                               : 23.976 (24000/1001) FPS
Color space                              : YUV
Chroma subsampling                       : 4:2:0
Bit depth                                : 8 bits
Scan type                                : Progressive
Bits/(Pixel*Frame)                       : 0.076
Stream size                              : 948 MiB (83%)
Writing library                          : x264 core 133 r2334 a3ac64b
Default                                  : Yes
Forced                                   : No

Audio #1
ID                                       : 2
Format                                   : AAC
Format/Info                              : Advanced Audio Codec
Format profile                           : HE-AAC / LC
Codec ID                                 : A_AAC
Duration                                 : 1 h 46 min
Bit rate                                 : 64.0 kb/s
Channel(s)                               : 2 channels
Channel positions                        : Front: L R
Sampling rate                            : 48.0 kHz / 24.0 kHz
Frame rate                               : 23.438 FPS (1024 spf)
Compression mode                         : Lossy
Delay relative to video                  : 31 ms
Stream size                              : 48.8 MiB (4%)
Language                                 : English
Default                                  : No
Forced                                   : No

Audio #2
ID                                       : 3
Format                                   : MPEG Audio
Format version                           : Version 1
Format profile                           : Layer 3
Mode                                     : Joint stereo
Mode extension                           : MS Stereo
Codec ID                                 : A_MPEG/L3
Codec ID/Hint                            : MP3
Duration                                 : 1 h 47 min
Bit rate mode                            : Constant
Bit rate                                 : 192 kb/s
Channel(s)                               : 2 channels
Sampling rate                            : 44.1 kHz
Frame rate                               : 38.281 FPS (1152 spf)
Compression mode                         : Lossy
Stream size                              : 147 MiB (13%)
Writing library                          : LAME3.98.2
Language                                 : Hindi
Default                                  : Yes
Forced                                   : Yes

SCREENSHOTS

Resident Evil The Final Chapter 2017 Dual Audio Hindi-Cam 720p WEB-DL 1.12 GB Download

Resident Evil The Final Chapter 2017 Dual Audio Hindi-Cam 720p WEB-DL 1.12 GB Download

DOWNLOAD LINKS

DIRECT DOWNLOADS

WATCH ONLINE

Recent search terms: