The Legend of Tarzan 2016 Camrip x264 Hindi Dubbed [Without Ads] Download or Watch online



The Legend of Tarzan 2016 Camrip x264 Hindi Dubbed [Without Ads] Download or Watch online

FOR BETTER HDTS PRINT CLICK HERE The Legend of Tarzan 2016 HDTS DUAL AUDIO

The Legend of Tarzan 2016 HD TS Hindi English CPG x264 DUAL AUDIO Download watch online

The Legend of Tarzan 2016 Camrip

The Legend of Tarzan
2016 ‧ Action/Adventure ‧ 1h 50m
7.3/10IMDb    32%Rotten Tomatoes     41%Metacritic

The Legend of Tarzan is a 2016 American action adventure film based on the fictional character created by Edgar Rice Burroughs. Directed by David Yates and written by Adam Cozad and Craig Brewer,[4] its cast comprises Alexander Skarsgård,Samuel L. Jackson, Margot Robbie, Djimon Hounsou, Jim Broadbent and Christoph Waltz.

The Legend of Tarzan (2016) Hindi Dubbed Movie PreDVDRip 700 MB Mpeg

::::… Movie Info …::::

General
Complete name : The Legend of Tarzan 2016
Format : MPEG-4
Format profile : Base Media
Codec ID : isom
File size : 822 MiB
Duration : 1h 40mn
Overall bit rate mode : Variable
Overall bit rate : 1 139 Kbps

Video
ID : 1
Format : AVC
Format/Info : Advanced Video Codec
Format profile : [email protected]
Format settings, CABAC : No
Format settings, ReFrames : 1 frame
Codec ID : avc1
Codec ID/Info : Advanced Video Coding
Duration : 1h 40mn
Bit rate : 1 000 Kbps
Width : 720 pixels
Height : 380 pixels
Display aspect ratio : 1.895
Frame rate mode : Constant
Frame rate : 23.976 fps
Color space : YUV
Chroma subsampling : 4:2:0
Bit depth : 8 bits
Scan type : Progressive
Bits/(Pixel*Frame) : 0.152
Stream size : 722 MiB (88%)

Audio
ID : 2
Format : AAC
Format/Info : Advanced Audio Codec
Format profile : LC
Codec ID : 40
Duration : 1h 40mn
Duration_LastFrame : -19ms
Bit rate mode : Variable
Bit rate : 132 Kbps
Maximum bit rate : 192 Kbps
Channel(s) : 2 channels
Channel positions : Front: L R
Sampling rate : 48.0 KHz
Compression mode : Lossy
Stream size : 97.0 MiB (12%)
Language : Hindi

Screen Shots

tr9YaZyIFks

 

Download Links

Direct Download 

Watch online

FOR BETTER HDTS PRINT CLICK HERE

The Legend of Tarzan 2016 HDTS DUAL AUDIO <