The Purge Election year 2016 CAM English x264 AAC DOWNLOAD WATCH ONLINE



The Purge Election year 2016 CAM English x264  AAC
The Purge Election year 2016 CAM English

The Purge: Election Year
2016 ‧ Science fiction film/Thriller ‧ 1h 45m
As a young girl, Sen. Charlie Roan survived the annual night of lawlessness that took the lives of her family members. As a presidential candidate, Roan is determined to end the yearly tradition of blood lust once and for all. When her opponents hatch a deadly scheme, the senator finds herself trapp… More
Initial release: July 1, 2016 (USA)
Director: James DeMonaco
Film series: The Purge film series
Distributed by: Universal Studios
Box office: 40.6 million USD

imageFormat : MKV
Format version : Version 4 / Version 2
File size : 699 MiB
Duration : 1h 33mn
Overall bit rate : 1 044 Kbps

Video
ID : 2
Format : AVC
Format/Info : Advanced Video Codec
Format profile : [email protected]
Format settings, CABAC : Yes
Format settings, ReFrames : 4 frames
Codec ID : V_MPEG4/ISO/AVC
Duration : 1h 33mn
Bit rate : 977 Kbps
Width : 720 pixels
Height : 376 pixels
Display aspect ratio : 1.915
Frame rate mode : Constant
Frame rate : 23.976 (24000/1001) fps
Color space : YUV
Chroma subsampling : 4:2:0
Bit depth : 8 bits
Scan type : Progressive
Bits/(Pixel*Frame) : 0.151
Stream size : 654 MiB (94%)
Forced : No

Audio
ID : 1
Format : AAC
Format/Info : Advanced Audio Codec
Format profile : LC
source : nffa
Codec ID : A_AAC
Duration : 1h 33mn
Bit rate : 64.7 Kbps
Channel(s) : 2 channels
Channel positions : Front: L R
Sampling rate : 48.0 KHz
Frame rate : 46.875 fps (1024 spf)
Compression mode : Lossy
Delay relative to video : 104ms
Stream size : 43.3 MiB (6%)
Title : Stereo
Language : English
Default : Yes
Forced : No

The Purge Election year 2016 CAM English

The Purge Election year 2016 CAM English

Download Links

//go.ad2up.com/afu.php?id=694375

Direct Downloads

Watch online

[the_ad id=”7740″]