Ezra Firestone - Traffic MBA Smart Project Management (2017)

Ezra Firestone - Traffic MBA Smart Project Management (2017)
Ezra Firestone - Traffic MBA Smart Project Management (2017)
WEBRip | English | MP4 + PDF Guides | 1296 x 728 | AVC ~2053 Kbps | 30 fps
AAC | 128 Kbps | 44.1 KHz | 2 channels | 08:24:19 | 7.58 GB
Genre: eLearning Video / Business, Net: E-Commerce


Through my blog at Smart Marketer I get the opportunity to relate with tens of thousands of entrepreneurs Do you want to know what the number one thing I see is? Literally 9 out 10 company owners I speak to are overworked, under systematized and either burned out already or heading toward it... I can recognize it from across the room at events...
It's the MOST common experience for people who run companies, at some point or another they push to far, do too much and it ends up costing them in some major way

My philosophy on business is that it's a marathon

I want consistent sustainable pace and growth in all areas of the business

I want to plant seeds and water them every day and grow mango orchards that feed my family for generations

Rather than going out and spearing a pig and eating for a day...

So what does this have to do with your business?

Well I've been building companies online for the past 12 years and I've learned a few things about team building (or as I call it, "buying help") and ongoing project management

In this training tonight I'm going to cover

+ How to "buy help"
+ My simple process for organizing projects
+ The story of how a project manager revolutionized my business
+ How you can get me to help you organize and systematize your business

General
Complete name : 03. TMBA- Smart Project Management - Smart Marketer eCommerce Community .mp4
Format : MPEG-4
Format profile : Base Media
Codec ID : isom (isom/iso2/mp41)
File size : 1.28 GiB
Duration : 1 h 23 min
Overall bit rate mode : Constant
Overall bit rate : 2 188 kb/s
Season : 0
Movie name : 03. TMBA- Smart Project Management - Smart Marketer eCommerce Community
Part : 0

Video
ID : 1
Format : MPEG-4 Visual
Format profile : [email protected]
Format settings, BVOP : No
Format settings, QPel : No
Format settings, GMC : No warppoints
Format settings, Matrix : Default (H.263)
Codec ID : 20
Duration : 1 h 23 min
Bit rate mode : Constant
Bit rate : 2 053 kb/s
Width : 1 296 pixels
Height : 728 pixels
Display aspect ratio : 16:9
Original display aspect ratio : 16:9
Frame rate mode : Constant
Frame rate : 30.000 FPS
Color space : YUV
Chroma subsampling : 4:2:0
Bit depth : 8 bits
Scan type : Progressive
Compression mode : Lossy
Bits/(Pixel*Frame) : 0.073
Stream size : 1.20 GiB (94%)
Writing library : Lavc57.48.101
Menus : 3

Audio
ID : 2
Format : AAC
Format/Info : Advanced Audio Codec
Format profile : LC
Codec ID : 40
Duration : 1 h 23 min
Bit rate mode : Constant
Bit rate : 128 kb/s
Channel(s) : 2 channels
Channel positions : Front: L R
Sampling rate : 44.1 kHz
Frame rate : 43.066 FPS (1024 spf)
Compression mode : Lossy
Stream size : 76.7 MiB (6%)
Default : Yes
Alternate group : 1

Menu
ID : 3
Codec ID : text
Duration : 1 h 23 min
Encoded date : UTC 2017-09-07 18:24:00
Tagged date : UTC 2017-09-07 18:24:00
Menu For : 1
00:00:00.000 : Chapter 1


Ezra Firestone - Traffic MBA Smart Project Management (2017)

Download link:



Links are Interchangeable - No Password - Single Extraction
Ezra Firestone - Traffic MBA Smart Project Management (2017)
Ezra Firestone - Traffic MBA Smart Project Management (2017)
WEBRip | English | MP4 + PDF Guides | 1296 x 728 | AVC ~2053 Kbps | 30 fps
AAC | 128 Kbps | 44.1 KHz | 2 channels | 08:24:19 | 7.58 GB
Genre: eLearning Video / Business, Net: E-Commerce


Through my blog at Smart Marketer I get the opportunity to relate with tens of thousands of entrepreneurs Do you want to know what the number one thing I see is? Literally 9 out 10 company owners I speak to are overworked, under systematized and either burned out already or heading toward it... I can recognize it from across the room at events...
It's the MOST common experience for people who run companies, at some point or another they push to far, do too much and it ends up costing them in some major way

My philosophy on business is that it's a marathon

I want consistent sustainable pace and growth in all areas of the business

I want to plant seeds and water them every day and grow mango orchards that feed my family for generations

Rather than going out and spearing a pig and eating for a day...

So what does this have to do with your business?

Well I've been building companies online for the past 12 years and I've learned a few things about team building (or as I call it, "buying help") and ongoing project management

In this training tonight I'm going to cover

+ How to "buy help"
+ My simple process for organizing projects
+ The story of how a project manager revolutionized my business
+ How you can get me to help you organize and systematize your business

General
Complete name : 03. TMBA- Smart Project Management - Smart Marketer eCommerce Community .mp4
Format : MPEG-4
Format profile : Base Media
Codec ID : isom (isom/iso2/mp41)
File size : 1.28 GiB
Duration : 1 h 23 min
Overall bit rate mode : Constant
Overall bit rate : 2 188 kb/s
Season : 0
Movie name : 03. TMBA- Smart Project Management - Smart Marketer eCommerce Community
Part : 0

Video
ID : 1
Format : MPEG-4 Visual
Format profile : [email protected]
Format settings, BVOP : No
Format settings, QPel : No
Format settings, GMC : No warppoints
Format settings, Matrix : Default (H.263)
Codec ID : 20
Duration : 1 h 23 min
Bit rate mode : Constant
Bit rate : 2 053 kb/s
Width : 1 296 pixels
Height : 728 pixels
Display aspect ratio : 16:9
Original display aspect ratio : 16:9
Frame rate mode : Constant
Frame rate : 30.000 FPS
Color space : YUV
Chroma subsampling : 4:2:0
Bit depth : 8 bits
Scan type : Progressive
Compression mode : Lossy
Bits/(Pixel*Frame) : 0.073
Stream size : 1.20 GiB (94%)
Writing library : Lavc57.48.101
Menus : 3

Audio
ID : 2
Format : AAC
Format/Info : Advanced Audio Codec
Format profile : LC
Codec ID : 40
Duration : 1 h 23 min
Bit rate mode : Constant
Bit rate : 128 kb/s
Channel(s) : 2 channels
Channel positions : Front: L R
Sampling rate : 44.1 kHz
Frame rate : 43.066 FPS (1024 spf)
Compression mode : Lossy
Stream size : 76.7 MiB (6%)
Default : Yes
Alternate group : 1

Menu
ID : 3
Codec ID : text
Duration : 1 h 23 min
Encoded date : UTC 2017-09-07 18:24:00
Tagged date : UTC 2017-09-07 18:24:00
Menu For : 1
00:00:00.000 : Chapter 1


Ezra Firestone - Traffic MBA Smart Project Management (2017)

Download link:

rapidgator_net:
http://rapidgator.net/file/519c3e1a3c345e9960ef3de15b0bb79e/950h0.Ezra.Firestone..Traffic.MBA.Smart.Project.Management.2017.part1.rar.html
http://rapidgator.net/file/8b092dd02af570e2e14265e671fc9679/950h0.Ezra.Firestone..Traffic.MBA.Smart.Project.Management.2017.part2.rar.html
http://rapidgator.net/file/256c71101b1bd7d7e93ef449fa8f73fd/950h0.Ezra.Firestone..Traffic.MBA.Smart.Project.Management.2017.part3.rar.html
http://rapidgator.net/file/9bb705a112580deae78b6ac244ebc844/950h0.Ezra.Firestone..Traffic.MBA.Smart.Project.Management.2017.part4.rar.html
http://rapidgator.net/file/725fba983c56c9499a369f49f4a4b0c6/950h0.Ezra.Firestone..Traffic.MBA.Smart.Project.Management.2017.part5.rar.html
http://rapidgator.net/file/64b60c841a1bc3ebfdd640da084dfa7d/950h0.Ezra.Firestone..Traffic.MBA.Smart.Project.Management.2017.part6.rar.html
http://rapidgator.net/file/556b85bbaf447ddb7d5f2e4eb25d3eda/950h0.Ezra.Firestone..Traffic.MBA.Smart.Project.Management.2017.part7.rar.html
http://rapidgator.net/file/20f513bd2b07aa2cc25648f17b5c366a/950h0.Ezra.Firestone..Traffic.MBA.Smart.Project.Management.2017.part8.rar.html

uploadgig_com:
http://uploadgig.com/file/download/50742209b999D10b/950h0.Ezra.Firestone..Traffic.MBA.Smart.Project.Management.2017.part1.rar
http://uploadgig.com/file/download/FD66efc9842c724C/950h0.Ezra.Firestone..Traffic.MBA.Smart.Project.Management.2017.part2.rar
http://uploadgig.com/file/download/7C51528c2D196039/950h0.Ezra.Firestone..Traffic.MBA.Smart.Project.Management.2017.part3.rar
http://uploadgig.com/file/download/7f523d8ad632C119/950h0.Ezra.Firestone..Traffic.MBA.Smart.Project.Management.2017.part4.rar
http://uploadgig.com/file/download/7F7c40bEed5388Cd/950h0.Ezra.Firestone..Traffic.MBA.Smart.Project.Management.2017.part5.rar
http://uploadgig.com/file/download/362E1B9981c59684/950h0.Ezra.Firestone..Traffic.MBA.Smart.Project.Management.2017.part6.rar
http://uploadgig.com/file/download/602642BAa2aefe47/950h0.Ezra.Firestone..Traffic.MBA.Smart.Project.Management.2017.part7.rar
http://uploadgig.com/file/download/b2c59d773aA52d79/950h0.Ezra.Firestone..Traffic.MBA.Smart.Project.Management.2017.part8.rar

nitroflare_com:
http://nitroflare.com/view/D5409BAD5DA00A9/950h0.Ezra.Firestone..Traffic.MBA.Smart.Project.Management.2017.part1.rar
http://nitroflare.com/view/4B6ED9C9527E267/950h0.Ezra.Firestone..Traffic.MBA.Smart.Project.Management.2017.part2.rar
http://nitroflare.com/view/2376B1BBA05B115/950h0.Ezra.Firestone..Traffic.MBA.Smart.Project.Management.2017.part3.rar
http://nitroflare.com/view/5993625913E0C1A/950h0.Ezra.Firestone..Traffic.MBA.Smart.Project.Management.2017.part4.rar
http://nitroflare.com/view/B9E6E94AE4079CE/950h0.Ezra.Firestone..Traffic.MBA.Smart.Project.Management.2017.part5.rar
http://nitroflare.com/view/4825B85C76AFFA5/950h0.Ezra.Firestone..Traffic.MBA.Smart.Project.Management.2017.part6.rar
http://nitroflare.com/view/11D9993D58013D6/950h0.Ezra.Firestone..Traffic.MBA.Smart.Project.Management.2017.part7.rar
http://nitroflare.com/view/8E097BE6E13DEC5/950h0.Ezra.Firestone..Traffic.MBA.Smart.Project.Management.2017.part8.rar

Links are Interchangeable - No Password - Single Extraction
[related-news][/related-news]
Dear visitor, you are browsing our website as Guest.
We strongly recommend you to register and login to view hidden contents.

Comments:

Add Comment
 

Copyright 2016 picwash.com
Powered by DataLife Engine .
All Rights Reserved.