Proko - Art of Caricature with Court Jones

Proko - Art of Caricature with Court Jones
Proko - Art of Caricature with Court Jones
WEBRip | MP4 + PDF Guides | English | 1920 x 1080 | AVC ~2908 kbps | 23.976 fps
AAC | 318 Kbps | 44.1 KHz | 2 channels | 10:08:07 | 13.32 GB
Genre: eLearning Video / Drawing, Painting


In this course you'll learn the core concepts of caricature. You'll use concepts like exaggeration and abstraction to take a rough sketch to a fully developed caricature drawing.
Court Jones works as a freelance commercial illustrator and caricature entertainer in San Diego, California. He has done a lot of published illustration and concept work for film and TV projects, editorial and product illustration for clients such as Atlantic Records, Upper Deck, Rolling Stone Magazine, Wired Magazine, The Washington Post, The San Diego Union-Tribune, San Diego Uptown News and Blizzard Entertainment, among others.


General
Complete name : 23 - Rough-Sketch-Example-4-Drew-Barrymore-1080p.mp4
Format : MPEG-4
Format profile : Base Media / Version 2
Codec ID : mp42 (mp42/mp41)
File size : 104 MiB
Duration : 4 min 31 s
Overall bit rate mode : Variable
Overall bit rate : 3 229 kb/s
Encoded date : UTC 2017-01-19 01:44:38
Tagged date : UTC 2017-01-19 01:44:42
TIM : 00:00:00:00
TSC : 24000
TSZ : 1001

Video
ID : 1
Format : AVC
Format/Info : Advanced Video Codec
Format profile : [email protected]
Format settings, CABAC : Yes
Format settings, ReFrames : 3 frames
Format settings, GOP : M=3, N=24
Codec ID : avc1
Codec ID/Info : Advanced Video Coding
Duration : 4 min 31 s
Bit rate mode : Variable
Bit rate : 2 908 kb/s
Maximum bit rate : 3 000 kb/s
Width : 1 920 pixels
Height : 1 080 pixels
Display aspect ratio : 16:9
Frame rate mode : Constant
Frame rate : 23.976 (24000/1001) FPS
Standard : NTSC
Color space : YUV
Chroma subsampling : 4:2:0
Bit depth : 8 bits
Scan type : Progressive
Bits/(Pixel*Frame) : 0.058
Stream size : 94.1 MiB (90%)
Language : English
Encoded date : UTC 2017-01-19 01:44:38
Tagged date : UTC 2017-01-19 01:44:38
Color range : Limited
Color primaries : BT.709
Transfer characteristics : BT.709
Matrix coefficients : BT.709

Audio
ID : 2
Format : AAC
Format/Info : Advanced Audio Codec
Format profile : LC
Codec ID : 40
Duration : 4 min 31 s
Source duration : 4 min 31 s
Bit rate mode : Variable
Bit rate : 318 kb/s
Maximum bit rate : 340 kb/s
Channel(s) : 2 channels
Channel positions : Front: L R
Sampling rate : 44.1 kHz
Frame rate : 43.066 FPS (1024 spf)
Compression mode : Lossy
Stream size : 10.3 MiB (10%)
Source stream size : 10.3 MiB (10%)
Language : English
Encoded date : UTC 2017-01-19 01:44:38
Tagged date : UTC 2017-01-19 01:44:38


Proko - Art of Caricature with Court Jones

Download link:



Links are Interchangeable - No Password - Single Extraction
Proko - Art of Caricature with Court Jones
Proko - Art of Caricature with Court Jones
WEBRip | MP4 + PDF Guides | English | 1920 x 1080 | AVC ~2908 kbps | 23.976 fps
AAC | 318 Kbps | 44.1 KHz | 2 channels | 10:08:07 | 13.32 GB
Genre: eLearning Video / Drawing, Painting


In this course you'll learn the core concepts of caricature. You'll use concepts like exaggeration and abstraction to take a rough sketch to a fully developed caricature drawing.
Court Jones works as a freelance commercial illustrator and caricature entertainer in San Diego, California. He has done a lot of published illustration and concept work for film and TV projects, editorial and product illustration for clients such as Atlantic Records, Upper Deck, Rolling Stone Magazine, Wired Magazine, The Washington Post, The San Diego Union-Tribune, San Diego Uptown News and Blizzard Entertainment, among others.


General
Complete name : 23 - Rough-Sketch-Example-4-Drew-Barrymore-1080p.mp4
Format : MPEG-4
Format profile : Base Media / Version 2
Codec ID : mp42 (mp42/mp41)
File size : 104 MiB
Duration : 4 min 31 s
Overall bit rate mode : Variable
Overall bit rate : 3 229 kb/s
Encoded date : UTC 2017-01-19 01:44:38
Tagged date : UTC 2017-01-19 01:44:42
TIM : 00:00:00:00
TSC : 24000
TSZ : 1001

Video
ID : 1
Format : AVC
Format/Info : Advanced Video Codec
Format profile : [email protected]
Format settings, CABAC : Yes
Format settings, ReFrames : 3 frames
Format settings, GOP : M=3, N=24
Codec ID : avc1
Codec ID/Info : Advanced Video Coding
Duration : 4 min 31 s
Bit rate mode : Variable
Bit rate : 2 908 kb/s
Maximum bit rate : 3 000 kb/s
Width : 1 920 pixels
Height : 1 080 pixels
Display aspect ratio : 16:9
Frame rate mode : Constant
Frame rate : 23.976 (24000/1001) FPS
Standard : NTSC
Color space : YUV
Chroma subsampling : 4:2:0
Bit depth : 8 bits
Scan type : Progressive
Bits/(Pixel*Frame) : 0.058
Stream size : 94.1 MiB (90%)
Language : English
Encoded date : UTC 2017-01-19 01:44:38
Tagged date : UTC 2017-01-19 01:44:38
Color range : Limited
Color primaries : BT.709
Transfer characteristics : BT.709
Matrix coefficients : BT.709

Audio
ID : 2
Format : AAC
Format/Info : Advanced Audio Codec
Format profile : LC
Codec ID : 40
Duration : 4 min 31 s
Source duration : 4 min 31 s
Bit rate mode : Variable
Bit rate : 318 kb/s
Maximum bit rate : 340 kb/s
Channel(s) : 2 channels
Channel positions : Front: L R
Sampling rate : 44.1 kHz
Frame rate : 43.066 FPS (1024 spf)
Compression mode : Lossy
Stream size : 10.3 MiB (10%)
Source stream size : 10.3 MiB (10%)
Language : English
Encoded date : UTC 2017-01-19 01:44:38
Tagged date : UTC 2017-01-19 01:44:38


Proko - Art of Caricature with Court Jones

Download link:

rapidgator_net:
http://rapidgator.net/file/dae2689dab1e1f5f9098b7cc10c71d16/ubsom.Proko..Art.of.Caricature.with.Court.Jones.part1.rar.html
http://rapidgator.net/file/5d22a0791416690381784e6d634b6eb1/ubsom.Proko..Art.of.Caricature.with.Court.Jones.part2.rar.html
http://rapidgator.net/file/733cef84881a7e738c41a2e79b9472a5/ubsom.Proko..Art.of.Caricature.with.Court.Jones.part3.rar.html
http://rapidgator.net/file/82a78d25f6db49fb6ee93fd1c48ade28/ubsom.Proko..Art.of.Caricature.with.Court.Jones.part4.rar.html
http://rapidgator.net/file/040bdf3852292aa5290ef98b518ed2d9/ubsom.Proko..Art.of.Caricature.with.Court.Jones.part5.rar.html
http://rapidgator.net/file/fe8c32c7b5e36cf7b842988b0d5f0555/ubsom.Proko..Art.of.Caricature.with.Court.Jones.part6.rar.html
http://rapidgator.net/file/f91e4e595781aa783d79c038c218e5f8/ubsom.Proko..Art.of.Caricature.with.Court.Jones.part7.rar.html

uploadgig_com:
http://uploadgig.com/file/download/daaD4E5b8fa94355/ubsom.Proko..Art.of.Caricature.with.Court.Jones.part1.rar
http://uploadgig.com/file/download/f669D567b549907c/ubsom.Proko..Art.of.Caricature.with.Court.Jones.part2.rar
http://uploadgig.com/file/download/F3F74757235d31dd/ubsom.Proko..Art.of.Caricature.with.Court.Jones.part3.rar
http://uploadgig.com/file/download/0A8a03Bec386583B/ubsom.Proko..Art.of.Caricature.with.Court.Jones.part4.rar
http://uploadgig.com/file/download/5b50039c80cfd5b5/ubsom.Proko..Art.of.Caricature.with.Court.Jones.part5.rar
http://uploadgig.com/file/download/028c1258Af9b93D3/ubsom.Proko..Art.of.Caricature.with.Court.Jones.part6.rar
http://uploadgig.com/file/download/67fB7d98A3C12113/ubsom.Proko..Art.of.Caricature.with.Court.Jones.part7.rar

nitroflare_com:
http://nitroflare.com/view/56EED1E2122D37F/ubsom.Proko..Art.of.Caricature.with.Court.Jones.part1.rar
http://nitroflare.com/view/6DA16F546877CE5/ubsom.Proko..Art.of.Caricature.with.Court.Jones.part2.rar
http://nitroflare.com/view/64A52F23FF1A4BF/ubsom.Proko..Art.of.Caricature.with.Court.Jones.part3.rar
http://nitroflare.com/view/09BDC35A2B52824/ubsom.Proko..Art.of.Caricature.with.Court.Jones.part4.rar
http://nitroflare.com/view/5D72BD72EDE5321/ubsom.Proko..Art.of.Caricature.with.Court.Jones.part5.rar
http://nitroflare.com/view/D1E89A6E6931454/ubsom.Proko..Art.of.Caricature.with.Court.Jones.part6.rar
http://nitroflare.com/view/1B3B2D4DC761406/ubsom.Proko..Art.of.Caricature.with.Court.Jones.part7.rar

Links are Interchangeable - No Password - Single Extraction
[related-news][/related-news]
Dear visitor, you are browsing our website as Guest.
We strongly recommend you to register and login to view hidden contents.

Comments:

Add Comment
 

Copyright 2016 picwash.com
Powered by DataLife Engine .
All Rights Reserved.