Build Cross-Platform Desktop Apps.with Electron (2017)

Author: sddd on 19-09-2017, 02:50
  • Dislike
  • 0
  • Like
Build Cross-Platform Desktop Apps.with Electron (2017)
Build Cross-Platform Desktop Apps with Electron (2017)
WEBRip | English | MP4 + Project files | 1920 x 1080 | AVC ~583 kbps | 25 fps
AAC | 102 Kbps | 48.0 KHz | 2 channels | 4h 48mn | 1.22 GB
Genre: eLearning Video / Development, Programming
Learn how to build desktop applications with Electron, the underlying technology for Github's Atom text editor, Microsoft's Visual Studio Code IDE, Slack's desktop application, and many others! Learn to build cross-platform desktop web applications for MacOS, Windows, and Linux with javascript.

Manage Electron's multiple process architecture and facilitate communication between processes. Build applications that live in the system's menu bar or taskbar. And learn to debug, test, package and distribute your applications on multiple operating systems.
More Info:
http://anonym.to/?http://frontendmasters.com/courses/electron/
General
Complete name : 2. Code Review of a Menu bar Application.mp4
Format : MPEG-4
Format profile : Base Media
Codec ID : isom (isom/iso2/avc1/mp41)
File size : 37.1 MiB
Duration : 7 min 29 s
Overall bit rate mode : Variable
Overall bit rate : 693 kb/s
Writing application : Lavf57.7.2
Video
ID : 1
Format : AVC
Format/Info : Advanced Video Codec
Format profile :
Format settings, CABAC : Yes
Format settings, ReFrames : 4 frames
Codec ID : avc1
Codec ID/Info : Advanced Video Coding
Duration : 7 min 29 s
Bit rate : 583 kb/s
Width : 1 920 pixels
Height : 1 080 pixels
Display aspect ratio : 16:9
Frame rate mode : Constant
Frame rate : 25.000 FPS
Color space : YUV
Chroma subsampling : 4:2:0
Bit depth : 8 bits
Scan type : Progressive
Bits/(Pixel*Frame) : 0.011
Stream size : 31.2 MiB (84%)
Writing library : x264 core 148 r2795 aaa9aa8
Encoding settings : cabac=1 / ref=3 / deblock=1:0:0 / analyse=0x3:0x113 / me=hex / subme=7 / psy=1 / psy_rd=1.00:0.00 / mixed_ref=1 / me_range=16 / chroma_me=1 / trellis=1 / 8x8dct=1 / cqm=0 / deadzone=21,11 / fast_pskip=1 / chroma_qp_offset=-2 / threads=12 / lookahead_threads=2 / sliced_threads=0 / nr=0 / decimate=1 / interlaced=0 / bluray_compat=0 / constrained_intra=0 / bframes=3 / b_pyramid=2 / b_adapt=1 / b_bias=0 / direct=1 / weightb=1 / open_gop=0 / weightp=2 / keyint=250 / keyint_min=25 / scenecut=40 / intra_refresh=0 / rc_lookahead=40 / rc=crf / mbtree=1 / crf=23.0 / qcomp=0.60 / qpmin=0 / qpmax=69 / qpstep=4 / ip_ratio=1.40 / aq=1:1.00
Audio
ID : 2
Format : AAC
Format/Info : Advanced Audio Codec
Format profile : LC
Codec ID : 40
Duration : 7 min 29 s
Bit rate mode : Variable
Bit rate : 102 kb/s
Channel(s) : 2 channels
Channel positions : Front: L R
Sampling rate : 48.0 kHz
Frame rate : 46.875 FPS (1024 spf)
Compression mode : Lossy
Stream size : 5.45 MiB (15%)
Language : English
Default : Yes
Alternate group : 1
Build Cross-Platform Desktop Apps.with Electron (2017)
Build Cross-Platform Desktop Apps.with Electron (2017)

Download link :
(If you need these, buy and download immediately before they are delete)

Links are Interchangeable - Single Extraction - Premium is support resumable
Build Cross-Platform Desktop Apps.with Electron (2017)
Build Cross-Platform Desktop Apps with Electron (2017)
WEBRip | English | MP4 + Project files | 1920 x 1080 | AVC ~583 kbps | 25 fps
AAC | 102 Kbps | 48.0 KHz | 2 channels | 4h 48mn | 1.22 GB
Genre: eLearning Video / Development, Programming
Learn how to build desktop applications with Electron, the underlying technology for Github's Atom text editor, Microsoft's Visual Studio Code IDE, Slack's desktop application, and many others! Learn to build cross-platform desktop web applications for MacOS, Windows, and Linux with javascript.

Manage Electron's multiple process architecture and facilitate communication between processes. Build applications that live in the system's menu bar or taskbar. And learn to debug, test, package and distribute your applications on multiple operating systems.
More Info:
http://anonym.to/?http://frontendmasters.com/courses/electron/
General
Complete name : 2. Code Review of a Menu bar Application.mp4
Format : MPEG-4
Format profile : Base Media
Codec ID : isom (isom/iso2/avc1/mp41)
File size : 37.1 MiB
Duration : 7 min 29 s
Overall bit rate mode : Variable
Overall bit rate : 693 kb/s
Writing application : Lavf57.7.2
Video
ID : 1
Format : AVC
Format/Info : Advanced Video Codec
Format profile :
Format settings, CABAC : Yes
Format settings, ReFrames : 4 frames
Codec ID : avc1
Codec ID/Info : Advanced Video Coding
Duration : 7 min 29 s
Bit rate : 583 kb/s
Width : 1 920 pixels
Height : 1 080 pixels
Display aspect ratio : 16:9
Frame rate mode : Constant
Frame rate : 25.000 FPS
Color space : YUV
Chroma subsampling : 4:2:0
Bit depth : 8 bits
Scan type : Progressive
Bits/(Pixel*Frame) : 0.011
Stream size : 31.2 MiB (84%)
Writing library : x264 core 148 r2795 aaa9aa8
Encoding settings : cabac=1 / ref=3 / deblock=1:0:0 / analyse=0x3:0x113 / me=hex / subme=7 / psy=1 / psy_rd=1.00:0.00 / mixed_ref=1 / me_range=16 / chroma_me=1 / trellis=1 / 8x8dct=1 / cqm=0 / deadzone=21,11 / fast_pskip=1 / chroma_qp_offset=-2 / threads=12 / lookahead_threads=2 / sliced_threads=0 / nr=0 / decimate=1 / interlaced=0 / bluray_compat=0 / constrained_intra=0 / bframes=3 / b_pyramid=2 / b_adapt=1 / b_bias=0 / direct=1 / weightb=1 / open_gop=0 / weightp=2 / keyint=250 / keyint_min=25 / scenecut=40 / intra_refresh=0 / rc_lookahead=40 / rc=crf / mbtree=1 / crf=23.0 / qcomp=0.60 / qpmin=0 / qpmax=69 / qpstep=4 / ip_ratio=1.40 / aq=1:1.00
Audio
ID : 2
Format : AAC
Format/Info : Advanced Audio Codec
Format profile : LC
Codec ID : 40
Duration : 7 min 29 s
Bit rate mode : Variable
Bit rate : 102 kb/s
Channel(s) : 2 channels
Channel positions : Front: L R
Sampling rate : 48.0 kHz
Frame rate : 46.875 FPS (1024 spf)
Compression mode : Lossy
Stream size : 5.45 MiB (15%)
Language : English
Default : Yes
Alternate group : 1
Build Cross-Platform Desktop Apps.with Electron (2017)
Build Cross-Platform Desktop Apps.with Electron (2017)

Download link :
(If you need these, buy and download immediately before they are delete)
Links are Interchangeable - Single Extraction - Premium is support resumable
[related-news][/related-news]
Dear visitor, you are browsing our website as Guest.
We strongly recommend you to register and login to view hidden contents.

Comments:

Add Comment
 

Copyright 2016 picwash.com
Powered by DataLife Engine .
All Rights Reserved.