Data Structures and Algorithms in JavaScript (2017)

Data Structures and Algorithms in JavaScript (2017)
Data Structures and Algorithms in javascript (2017)
WEBRip | English | MP4 + Project files | 1920 x 1080 | VP8 ~394 kbps | 23.976 fps
VORBIS | 192 Kbps | 48.0 KHz | 2 channels | 16h 13mn | 4.34 GB
Genre: eLearning Video / Development, Programming


Immerse yourself in a course tailored for engineers comfortable with javascript, but wanting to better understand the data structures and algorithms necessary to ace job interviews and build better software.
Learn topics like recursion, stacks & queues, sorting algorithms, trees, linked lists, Binary Search Trees, Graphs, & Hash Tables, Big-O and Breadth-First and Depth-First Search all in one place! This course is your key to understanding some of the most common data structures and algorithms in Computer Science while reinforcing javascript programming techniques. Master these concepts and you can approach your next job interview or coding challenge with confidence!

General
Unique ID : 288364105082823601457400140878618094218 (0xD8F0E80F808BAAFAF6C08EFEF048EA8A)
Complete name : 8. Review - Linked Lists.mp4
Format : WebM
Format version : Version 2
File size : 49.1 MiB
Duration : 11 min 5 s
Overall bit rate mode : Variable
Overall bit rate : 619 kb/s
Writing application : Lavf57.25.100
Writing library : Lavf57.25.100
FileExtension_Invalid : webm

Video
ID : 2
Format : VP8
Codec ID : V_VP8
Duration : 11 min 5 s
Bit rate : 394 kb/s
Width : 1 920 pixels
Height : 1 080 pixels
Display aspect ratio : 16:9
Frame rate mode : Constant
Frame rate : 23.976 (24000/1001) FPS
Compression mode : Lossy
Bits/(Pixel*Frame) : 0.008
Stream size : 31.2 MiB (64%)
Language : English
Default : Yes
Forced : No

Audio
ID : 1
Format : Vorbis
Format settings, Floor : 1
Codec ID : A_VORBIS
Duration : 11 min 5 s
Bit rate mode : Variable
Bit rate : 192 kb/s
Channel(s) : 2 channels
Sampling rate : 48.0 kHz
Compression mode : Lossy
Delay relative to video : -45 ms
Stream size : 15.2 MiB (31%)
Writing application : Lavc57.24.102
Language : English
Default : Yes
Forced : No

Data Structures and Algorithms in JavaScript (2017)

Download link:



Links are Interchangeable - No Password - Single Extraction
Data Structures and Algorithms in JavaScript (2017)
Data Structures and Algorithms in javascript (2017)
WEBRip | English | MP4 + Project files | 1920 x 1080 | VP8 ~394 kbps | 23.976 fps
VORBIS | 192 Kbps | 48.0 KHz | 2 channels | 16h 13mn | 4.34 GB
Genre: eLearning Video / Development, Programming


Immerse yourself in a course tailored for engineers comfortable with javascript, but wanting to better understand the data structures and algorithms necessary to ace job interviews and build better software.
Learn topics like recursion, stacks & queues, sorting algorithms, trees, linked lists, Binary Search Trees, Graphs, & Hash Tables, Big-O and Breadth-First and Depth-First Search all in one place! This course is your key to understanding some of the most common data structures and algorithms in Computer Science while reinforcing javascript programming techniques. Master these concepts and you can approach your next job interview or coding challenge with confidence!

General
Unique ID : 288364105082823601457400140878618094218 (0xD8F0E80F808BAAFAF6C08EFEF048EA8A)
Complete name : 8. Review - Linked Lists.mp4
Format : WebM
Format version : Version 2
File size : 49.1 MiB
Duration : 11 min 5 s
Overall bit rate mode : Variable
Overall bit rate : 619 kb/s
Writing application : Lavf57.25.100
Writing library : Lavf57.25.100
FileExtension_Invalid : webm

Video
ID : 2
Format : VP8
Codec ID : V_VP8
Duration : 11 min 5 s
Bit rate : 394 kb/s
Width : 1 920 pixels
Height : 1 080 pixels
Display aspect ratio : 16:9
Frame rate mode : Constant
Frame rate : 23.976 (24000/1001) FPS
Compression mode : Lossy
Bits/(Pixel*Frame) : 0.008
Stream size : 31.2 MiB (64%)
Language : English
Default : Yes
Forced : No

Audio
ID : 1
Format : Vorbis
Format settings, Floor : 1
Codec ID : A_VORBIS
Duration : 11 min 5 s
Bit rate mode : Variable
Bit rate : 192 kb/s
Channel(s) : 2 channels
Sampling rate : 48.0 kHz
Compression mode : Lossy
Delay relative to video : -45 ms
Stream size : 15.2 MiB (31%)
Writing application : Lavc57.24.102
Language : English
Default : Yes
Forced : No

Data Structures and Algorithms in JavaScript (2017)

Download link:

rapidgator_net:
http://rapidgator.net/file/e84f86bcfefa2a07830436be18723305/xj8uj.Data.Structures.and.Algorithms.in.javascript.2017.part1.rar.html
http://rapidgator.net/file/812d98e27d8509e07cf83ab35871962f/xj8uj.Data.Structures.and.Algorithms.in.javascript.2017.part2.rar.html
http://rapidgator.net/file/2abba65825b1246f9ac538c3f6dbebcc/xj8uj.Data.Structures.and.Algorithms.in.javascript.2017.part3.rar.html
http://rapidgator.net/file/940577babed1fe216a27482e648b21fb/xj8uj.Data.Structures.and.Algorithms.in.javascript.2017.part4.rar.html
http://rapidgator.net/file/cf30edf363542701a3d1158b77744fd8/xj8uj.Data.Structures.and.Algorithms.in.javascript.2017.part5.rar.html

uploadgig_com:
http://uploadgig.com/file/download/7ABf636d119520b8/xj8uj.Data.Structures.and.Algorithms.in.javascript.2017.part1.rar
http://uploadgig.com/file/download/B7cbd3af402b820B/xj8uj.Data.Structures.and.Algorithms.in.javascript.2017.part2.rar
http://uploadgig.com/file/download/2363d8C4dCd80f27/xj8uj.Data.Structures.and.Algorithms.in.javascript.2017.part3.rar
http://uploadgig.com/file/download/4AfeaDc006497Af2/xj8uj.Data.Structures.and.Algorithms.in.javascript.2017.part4.rar
http://uploadgig.com/file/download/d25caa0F3A2435af/xj8uj.Data.Structures.and.Algorithms.in.javascript.2017.part5.rar

nitroflare_com:
http://nitroflare.com/view/0AEE921593D16EA/xj8uj.Data.Structures.and.Algorithms.in.javascript.2017.part1.rar
http://nitroflare.com/view/2640BC1D9811B65/xj8uj.Data.Structures.and.Algorithms.in.javascript.2017.part2.rar
http://nitroflare.com/view/6EA5DDEA4665D40/xj8uj.Data.Structures.and.Algorithms.in.javascript.2017.part3.rar
http://nitroflare.com/view/E06A3AF7D68EBD0/xj8uj.Data.Structures.and.Algorithms.in.javascript.2017.part4.rar
http://nitroflare.com/view/26FA7D22F68E4A7/xj8uj.Data.Structures.and.Algorithms.in.javascript.2017.part5.rar

Links are Interchangeable - No Password - Single Extraction
[related-news][/related-news]
Dear visitor, you are browsing our website as Guest.
We strongly recommend you to register and login to view hidden contents.

Comments:

Add Comment
 

Copyright 2016 picwash.com
Powered by DataLife Engine .
All Rights Reserved.