Code Transformation and Linting.with ASTs (2017)

Code Transformation and Linting.with ASTs (2017)

Code Transformation and Linting with ASTs (2017)
WEBRip | English | MP4 | 1920 x 1080 | AVC ~628 kbps | 25 fps
AAC | 101 Kbps | 48.0 KHz | 2 channels | 3h 41mn | 983 MB
Genre: eLearning Video / Development, Programming
Learn Abstract Syntax Trees to help keep track of stylistic code changes, reveal logical problems, and spot domain-specific issues to prevent bugs from entering your codebase. By coding along with Kent in this course, you'll learn: What Abstract Syntax Trees are, the tools available, and how to write custom ESLint rules, Babel plugins and Codemods with ASTs.

This course is for experienced javascript developers who want to gain a deep understanding of Abstract Syntax Trees to solve frustrating problems with their codebase and improve their development experience writing javascript applications.

More Info:
http://anonym.to/?http://frontendmasters.com/courses/linting-asts/

General
Complete name : 7. Challenge 4 - Edge Cases.mp4
Format : MPEG-4
Format profile : Base Media
Codec ID : isom (isom/iso2/avc1/mp41)
File size : 9.49 MiB
Duration : 1 min 48 s
Overall bit rate mode : Variable
Overall bit rate : 737 kb/s
Writing application : Lavf57.7.2

Video
ID : 1
Format : AVC
Format/Info : Advanced Video Codec
Format settings, CABAC : Yes
Format settings, ReFrames : 4 frames
Codec ID : avc1
Codec ID/Info : Advanced Video Coding
Duration : 1 min 47 s
Bit rate : 628 kb/s
Width : 1 920 pixels
Height : 1 080 pixels
Display aspect ratio : 16:9
Frame rate mode : Constant
Frame rate : 25.000 FPS
Color space : YUV
Chroma subsampling : 4:2:0
Bit depth : 8 bits
Scan type : Progressive
Bits/(Pixel*Frame) : 0.012
Stream size : 8.08 MiB (85%)
Writing library : x264 core 148 r2795 aaa9aa8
Encoding settings : cabac=1 / ref=3 / deblock=1:0:0 / analyse=0x3:0x113 / me=hex / subme=7 / psy=1 / psy_rd=1.00:0.00 / mixed_ref=1 / me_range=16 / chroma_me=1 / trellis=1 / 8x8dct=1 / cqm=0 / deadzone=21,11 / fast_pskip=1 / chroma_qp_offset=-2 / threads=12 / lookahead_threads=2 / sliced_threads=0 / nr=0 / decimate=1 / interlaced=0 / bluray_compat=0 / constrained_intra=0 / bframes=3 / b_pyramid=2 / b_adapt=1 / b_bias=0 / direct=1 / weightb=1 / open_gop=0 / weightp=2 / keyint=250 / keyint_min=25 / scenecut=40 / intra_refresh=0 / rc_lookahead=40 / rc=crf / mbtree=1 / crf=23.0 / qcomp=0.60 / qpmin=0 / qpmax=69 / qpstep=4 / ip_ratio=1.40 / aq=1:1.00

Audio
ID : 2
Format : AAC
Format/Info : Advanced Audio Codec
Format profile : LC
Codec ID : 40
Duration : 1 min 48 s
Bit rate mode : Variable
Bit rate : 101 kb/s
Channel(s) : 2 channels
Channel positions : Front: L R
Sampling rate : 48.0 kHz
Frame rate : 46.875 FPS (1024 spf)
Compression mode : Lossy
Stream size : 1.30 MiB (14%)
Language : English
Default : Yes
Alternate group : 1


Code Transformation and Linting.with ASTs (2017)

Code Transformation and Linting.with ASTs (2017)

Code Transformation and Linting.with ASTs (2017)


Download link:



Links are Interchangeable - No Password - Single Extraction
Code Transformation and Linting.with ASTs (2017)

Code Transformation and Linting with ASTs (2017)
WEBRip | English | MP4 | 1920 x 1080 | AVC ~628 kbps | 25 fps
AAC | 101 Kbps | 48.0 KHz | 2 channels | 3h 41mn | 983 MB
Genre: eLearning Video / Development, Programming
Learn Abstract Syntax Trees to help keep track of stylistic code changes, reveal logical problems, and spot domain-specific issues to prevent bugs from entering your codebase. By coding along with Kent in this course, you'll learn: What Abstract Syntax Trees are, the tools available, and how to write custom ESLint rules, Babel plugins and Codemods with ASTs.

This course is for experienced javascript developers who want to gain a deep understanding of Abstract Syntax Trees to solve frustrating problems with their codebase and improve their development experience writing javascript applications.

More Info:
http://anonym.to/?http://frontendmasters.com/courses/linting-asts/

General
Complete name : 7. Challenge 4 - Edge Cases.mp4
Format : MPEG-4
Format profile : Base Media
Codec ID : isom (isom/iso2/avc1/mp41)
File size : 9.49 MiB
Duration : 1 min 48 s
Overall bit rate mode : Variable
Overall bit rate : 737 kb/s
Writing application : Lavf57.7.2

Video
ID : 1
Format : AVC
Format/Info : Advanced Video Codec
Format settings, CABAC : Yes
Format settings, ReFrames : 4 frames
Codec ID : avc1
Codec ID/Info : Advanced Video Coding
Duration : 1 min 47 s
Bit rate : 628 kb/s
Width : 1 920 pixels
Height : 1 080 pixels
Display aspect ratio : 16:9
Frame rate mode : Constant
Frame rate : 25.000 FPS
Color space : YUV
Chroma subsampling : 4:2:0
Bit depth : 8 bits
Scan type : Progressive
Bits/(Pixel*Frame) : 0.012
Stream size : 8.08 MiB (85%)
Writing library : x264 core 148 r2795 aaa9aa8
Encoding settings : cabac=1 / ref=3 / deblock=1:0:0 / analyse=0x3:0x113 / me=hex / subme=7 / psy=1 / psy_rd=1.00:0.00 / mixed_ref=1 / me_range=16 / chroma_me=1 / trellis=1 / 8x8dct=1 / cqm=0 / deadzone=21,11 / fast_pskip=1 / chroma_qp_offset=-2 / threads=12 / lookahead_threads=2 / sliced_threads=0 / nr=0 / decimate=1 / interlaced=0 / bluray_compat=0 / constrained_intra=0 / bframes=3 / b_pyramid=2 / b_adapt=1 / b_bias=0 / direct=1 / weightb=1 / open_gop=0 / weightp=2 / keyint=250 / keyint_min=25 / scenecut=40 / intra_refresh=0 / rc_lookahead=40 / rc=crf / mbtree=1 / crf=23.0 / qcomp=0.60 / qpmin=0 / qpmax=69 / qpstep=4 / ip_ratio=1.40 / aq=1:1.00

Audio
ID : 2
Format : AAC
Format/Info : Advanced Audio Codec
Format profile : LC
Codec ID : 40
Duration : 1 min 48 s
Bit rate mode : Variable
Bit rate : 101 kb/s
Channel(s) : 2 channels
Channel positions : Front: L R
Sampling rate : 48.0 kHz
Frame rate : 46.875 FPS (1024 spf)
Compression mode : Lossy
Stream size : 1.30 MiB (14%)
Language : English
Default : Yes
Alternate group : 1


Code Transformation and Linting.with ASTs (2017)

Code Transformation and Linting.with ASTs (2017)

Code Transformation and Linting.with ASTs (2017)


Download link:


Links are Interchangeable - No Password - Single Extraction
[related-news][/related-news]
Dear visitor, you are browsing our website as Guest.
We strongly recommend you to register and login to view hidden contents.

Comments:

Add Comment
 

Copyright 2016 picwash.com
Powered by DataLife Engine .
All Rights Reserved.