Veerappan 2016 Desicam Rip 700Mb Hindi x264 AAC 2CH Download [No ADs]



Veerappan 2016 Dvdscr 700Mb Hindi x264 Download

5b600f (Small)

Release Date: 27 May 2016 (India)
Genres: Action
Language: Hindi

Director: Ram Gopal Varma
Writers: Jai Priyadarshi (additional dialogue), R.D. Tailang
Stars: Sandeep Bharadwaj, Sachiin Joshi, Zarine Khan |

Post: Officer Kannan leads a group of police officers to track down the bandit, Veerappan.

General
Format                                   : Matroska
Format version                           : Version 2
File size                                : 700 MiB
Duration                                 : 2h 20mn
Overall bit rate                         : 695 Kbps

Video
ID                                       : 1
Format                                   : AVC
Format/Info                              : Advanced Video Codec
Format profile                           : [email protected]
Format settings, CABAC                   : Yes
Format settings, ReFrames                : 4 frames
Codec ID                                 : V_MPEG4/ISO/AVC
Duration                                 : 2h 20mn
Bit rate                                 : 613 Kbps
Width                                    : 560 pixels
Height                                   : 264 pixels
Display aspect ratio                     : 2.121
Frame rate mode                          : Constant
Frame rate                               : 25.000 fps
Color space                              : YUV
Chroma subsampling                       : 4:2:0
Bit depth                                : 8 bits
Scan type                                : Progressive
Bits/(Pixel*Frame)                       : 0.166
Stream size                              : 618 MiB (88%)

Audio
Format                                   : AAC
Format/Info                              : Advanced Audio Codec
Format profile                           : HE-AAC / LC
Codec ID                                 : A_AAC
Duration                                 : 2h 20mn
Bit rate                                 : 80.0 Kbps
Channel(s)                               : 2 channels
Channel positions                        : Front: L R
Sampling rate                            : 48.0 KHz / 24.0 KHz
Stream size                              : 80.6 MiB (12%)

DOWNLOAD TORRENT [No ads]

[the_ad id=”4740″]

http://uptobox.com/pv6j7do9vlc0

http://filecloud.io/hc5vpqif7

http://openload.co/f/bOSPVBfQsaU/V

http://filerio.in/4wli395icimd

http://uplea.com/dl/A579C1FC75296A6

http://uplea.com/dl/A579C1FC75296A6

http://clicknupload.link/jfj23m7623af

http://www.bigfile.to/file/x8m8Cd4aAxjk