White Chicks 2004 HDRip 720p x264 Dual Audio [English-Hindi] Hon3y Download



White Chicks 2004 HDRip 720p x264 Dual Audio [English-Hindi] Hon3y Download

large_hT4PEPFW3dQG7N5LZe5b2qYHCU0

=First on Net=

General
Format : Matroska
Format version : Version 4 / Version 2
File size : 1.30 GiB
Duration : 1h 48mn
Overall bit rate : 1 710 Kbps

Video
Format : AVC
Format/Info : Advanced Video Codec
Format profile : [email protected]
Format settings, CABAC : Yes
Format settings, ReFrames : 9 frames
Codec ID : V_MPEG4/ISO/AVC
Duration : 1h 48mn
Bit rate : 1 519 Kbps
Width : 1 280 pixels
Height : 720 pixels
Display aspect ratio : 16:9
Frame rate mode : Constant
Frame rate : 23.976 (24000/1001) fps
Color space : YUV
Chroma subsampling : 4:2:0
Bit depth : 8 bits
Scan type : Progressive
Bits/(Pixel*Frame) : 0.069
Stream size : 1.15 GiB (89%)
Title : [email protected]

Audio Synched by: R3al_Star

Audio 1
Format : AAC
Format/Info : Advanced Audio Codec
Format profile : LC
Codec ID : A_AAC
Duration : 1h 48mn
Bit rate : 96.0 Kbps
Channel(s) : 2 channels
Channel positions : Front: L R
Sampling rate : 48.0 KHz
Frame rate : 46.875 fps (1024 spf)
Compression mode : Lossy
Delay relative to video : 9ms
Stream size : 74.7 MiB (6%)
Title : Hindi—[email protected]
Language : Hindi
Default : Yes

Audio 2
Format : AAC
Format/Info : Advanced Audio Codec
Format profile : LC
Codec ID : A_AAC
Duration : 1h 48mn
Bit rate : 92.8 Kbps
Channel(s) : 6 channels
Channel positions : Front: L C R, Side: L R, LFE
Sampling rate : 48.0 KHz
Frame rate : 46.875 fps (1024 spf)
Compression mode : Lossy
Delay relative to video : 9ms
Stream size : 72.2 MiB (5%)
Title : English—[email protected]
Language : English
Default : No

http://letpics.com/images/2016/05/20/w1os6jt.th.jpg http://letpics.com/images/2016/05/20/w25eSMc.th.jpg http://letpics.com/images/2016/05/20/w385VKI.th.jpg http://letpics.com/images/2016/05/20/w4lqZyr.th.jpg http://letpics.com/images/2016/05/20/w5A6vQj.th.jpg http://letpics.com/images/2016/05/20/w6KFaXV.th.jpg http://letpics.com/images/2016/05/20/w7BSXTo.th.jpg

Download Links

DOWNLOAD TORRENT ] Hon3y *Updated*

Watch Online

Openload
Streamin

Download Links

DIRECT LINK ZIP FILE
TORRENT LINK FULL SPEED

Download From Indishare
Download From Uptobox
Download From Userfiles
Download From Filescdn
Download From Uppit
Download From Userscloud
Download From Bdupload
Download From Filerio
Download From Filesupload
Download From 1fichier
Download From Multiup.org

Recent search terms:

Tags: ,