WWE CruiseWeight Classic – CWC Bracketology 7/6/16 – 6th July 2016 – 6/7/2016 Full Show Online Free Download



 WWE CruiseWeight Classic – CWC Bracketology 7/6/16 – 6th July 2016 – 6/7/2016 Full Show Online Free Download

 WWE CruiseWeight Classic – CWC Bracketology 7/6/16

WWE.Cruiserweight.Classic.S01E01.Bracketology.WEB.h264

The Cruiserweight Classic,[1] formerly Global Cruiserweight Series, is an upcoming professional wrestling tournament held by WWE with all participants billed at a weight of 205 lbs. or less. Tournament qualifying matches are taking place in various promotions of the independent circuit, including well known promotions such as Revolution Pro Wrestling, Progress Wrestling, and Evolve. Many cruiserweight wrestlers from around the world will have the chance to qualify for the 32-man tournament, which will take place over four dates: June 23, July 13, August 26, and September 14, 2016.[2]

image

Mediainfo :

Video
ID : 1
Format : AVC
Format/Info : Advanced Video Codec
Format profile : [email protected]
Format settings, CABAC : Yes
Format settings, ReFrames : 4 frames
Codec ID : V_MPEG4/ISO/AVC
Duration : 48mn 7s
Bit rate mode : Constant
Bit rate : 1 704 Kbps
Width : 896 pixels
Height : 504 pixels
Display aspect ratio : 16:9
Frame rate mode : Constant
Frame rate : 29.970 (30000/1001) fps
Color space : YUV
Chroma subsampling : 4:2:0
Bit depth : 8 bits
Scan type : Progressive
Bits/(Pixel*Frame) : 0.126
Stream size : 584 MiB (95%)
Default : Yes
Forced : No

Audio
ID : 2
Format : AAC
Format/Info : Advanced Audio Codec
Format profile : LC
Codec ID : A_AAC
Duration : 48mn 7s
Bit rate : 93.5 Kbps
Channel(s) : 2 channels
Channel positions : Front: L R
Sampling rate : 48.0 KHz
Frame rate : 46.875 fps (1024 spf)
Compression mode : Lossy
Delay relative to video : 12ms
Stream size : 32.2 MiB (5%)
Language : English
Default : Yes
Forced : No

ScreenShots –

image

Download Links

banner-8

Direct Download 

Watch Online