X-Men Apocalypse (2016) HDCam Hindi Dubbed x264 AAC 700MiB [No Ads] Download



X-Men Apocalypse (2016) HDCam Hindi Dubbed x264 AAC 700MiB [No Ads] Download

X-Men Apocalypse (2016) Hindi (Small)

Video Info

General
Complete name : X-Men Apocalypse (2016) HDCam Hindi Dubbed x264 AAC
Format : Matroska
Format version : Version 4 / Version 2
File size : 700 MiB
Duration : 2h 8mn
Overall bit rate : 660 Kbps

Video
ID : 1
Format : AVC
Format/Info : Advanced Video Codec
Format profile : [email protected]
Format settings, CABAC : Yes
Format settings, ReFrames : 4 frames
Codec ID : V_MPEG4/ISO/AVC
Duration : 2h 8mn
Bit rate : 575 Kbps
Width : 672 pixels
Height : 288 pixels
Display aspect ratio : 2.35:1
Frame rate mode : Variable
Frame rate : 30.000 fps
Color space : YUV
Chroma subsampling : 4:2:0
Bit depth : 8 bits
Scan type : Progressive
Bits/(Pixel*Frame) : 0.099
Stream size : 528 MiB (81%)

Audio
ID : 2
Format : AAC
Format/Info : Advanced Audio Codec
Format profile : HE-AAC / LC
Codec ID : A_AAC
Duration : 2h 28mn
Bit rate : 80.0 Kbps
Channel(s) : 2 channels
Channel positions : Front: L R
Sampling rate : 48.0 KHz / 24.0 KHz
Frame rate : 23.438 fps (1024 spf)
Compression mode : Lossy
Delay relative to video : 31ms
Stream size : 84.9 MiB (12%)
Language : Hindi

Download Links

DOWNLOAD TORRENT

Magnet Torrent Link

Click & Download Direct Link

Direct Download